Jai Ho (2014) Hindi Movie Official Theatrical Trailer *Salman Khan* HD 1080p {DAKU RG} {GreatPalash}

seeders: 12
leechers: 2


Added on Dec 15, 2013 by GreatPalash12161 in Movies > Trailer
Torrent verified. Downloaded 1,668 times.

Jai Ho (2014) Hindi Movie Official Theatrical Trailer *Salman Khan* HD 1080p {DAKU RG} {GreatPalash} (Size: 49 MB)
  Jai Ho (2014) - Official Theatrical Trailer Salman Khan HD 1080p {DAKU RG} {GreatPalash}.mp4 49 MB

Description

Without Any reason..Don't Dislike the torrent.....please check and give your feedback

image

Jai Ho (2014) - Official Theatrical Trailer Salman Khan HD 1080p

image

image

Check out the official theatrical trailer of "Jai Ho" a Sohail Khan directorial film featuring Salman Khan, Tabu, Daisy Shah & Sana Khan. The film is produced by Sunill Lulla & Sohail Khan & is all set to release in theatres on 24th January, 2014.

Screenshots:-

image

image

image

image

Media Info:-

General
Complete name : Jai Ho (2014) - Official Theatrical Trailer Salman Khan HD 1080p {DAKU RG} {GreatPalash}.mp4
Format : MPEG-4
Format profile : Base Media
Codec ID : isom
File size : 49.0 MiB
Duration : 1mn 56s
Overall bit rate mode : Variable
Overall bit rate : 3 528 Kbps
Writing application : Lavf53.31.100

Video
ID : 1
Format : AVC
Format/Info : Advanced Video Codec
Format profile : [email protected]
Format settings, CABAC : Yes
Format settings, ReFrames : 3 frames
Codec ID : avc1
Codec ID/Info : Advanced Video Coding
Duration : 1mn 56s
Bit rate mode : Variable
Bit rate : 3 395 Kbps
Maximum bit rate : 19.2 Mbps
Width : 1 920 pixels
Height : 1 080 pixels
Display aspect ratio : 16:9
Frame rate mode : Variable
Frame rate : 24.000 fps
Minimum frame rate : 23.983 fps
Maximum frame rate : 24.031 fps
Standard : NTSC
Color space : YUV
Chroma subsampling : 4:2:0
Bit depth : 8 bits
Scan type : Progressive
Bits/(Pixel*Frame) : 0.068
Stream size : 47.2 MiB (96%)
Color primaries : BT.709
Transfer characteristics : BT.709
Matrix coefficients : BT.709

Audio
ID : 2
Format : AAC
Format/Info : Advanced Audio Codec
Format profile : LC
Codec ID : 40
Duration : 1mn 56s
Bit rate mode : Constant
Bit rate : 126 Kbps
Channel(s) : 2 channels
Channel positions : Front: L R
Sampling rate : 44.1 KHz
Compression mode : Lossy
Stream size : 1.74 MiB (4%)

image

image

image

image

Related Torrents

torrent name size files age seed leech

Sharing Widget


Download this file
49 MB
seeders:12
leechers:2
Jai Ho (2014) Hindi Movie Official Theatrical Trailer *Salman Khan* HD 1080p {DAKU RG} {GreatPalash}

Trackers

tracker name Status checked seeders leechers downloads
udp://tracker.openbittorrent.com:80/announce
outdated 21 Feb 2014 - - -
udp://open.demonii.com:1337/announce
outdated 21 Feb 2014 - - -
udp://tracker.publicbt.com:80/announce
outdated 21 Feb 2014 - - -
udp://tracker.istole.it:80/announce
outdated 09 Feb 2014 - - -
udp://tracker.ccc.de:80/announce
outdated 15 Dec 2013 - - -
http://exodus.desync.com/announce
blocked 21 Feb 2014 - - -
udp://9.rarbg.com:2710/announce
pending 21 Feb 2014 9 0 10
udp://tracker.glotorrents.com:6969/announce
pending 19 Dec 2013 16 3 323
udp://glotorrents.com:6969/announce
pending 19 Dec 2013 16 3 323
µTorrent compatible trackers list

Locations

name author
KickassTorrents GreatPalash
Torrent hash: EB640827448A6555B9D56A5A5C198D375E78A2E5

All Comments

audio
10/10
video
10/10
please, leave only comments related to that torrent
or sign-in
0
anonymous • 17 January 2014, 06:23 Show comment
audio: 10video: 10
salman har movi best
0
anonymous • 03 January 2014, 21:48 Show comment
awesome trailer

User Opinions

Report a bug